Loading...

Fitoor (2016) Hindi 720p WEB-DL AVC AC3 DD 5 1 ESubs-Sun George (Requested)

Seeders: 3
Leechers: 1
Completed: 149

Age: 1 month    Visits: 42    Category: Movies    Size: 1.3 GB

Posted by: Sungeorge    Comments: Read Comments

Info Hash: 4DB9D037AB7B785117CD7E330782125FA05108B6



Torrent Description



Fitoor (2016) Hindi 720p WEB-DL AVC AC3 DD 5.1 ESubs-Sun George (Requested)



http://www.imdb.com/title/tt4399594/






===================================================================


General
Format                                   : Matroska
Format version                           : Version 4 / Version 2
File size                                : 1.25 GiB
Duration                                 : 2 h 3 min
Overall bit rate                         : 1 439 kb/s
Movie name : Fitoor (2016) Hindi 720p WEB-DL AVC AC3 DD 5.1 ESubs-Sun George (Requested)


===================================================================


Video
ID                                       : 1
Format                                   : AVC
Format/Info                              : Advanced Video Codec
Format profile                           : [email protected]
Format settings                          : CABAC / 4 Ref Frames
Format settings, CABAC                   : Yes
Format settings, RefFrames               : 4 frames
Codec ID                                 : V_MPEG4/ISO/AVC
Duration                                 : 2 h 3 min
Bit rate                                 : 1 054 kb/s
Width                                    : 1 280 pixels
Height                                   : 720 pixels
Display aspect ratio                     : 16:9
Frame rate mode                          : Variable
Frame rate                               : 25.000 FPS
Color space                              : YUV
Chroma subsampling                       : 4:2:0
Bit depth                                : 8 bits
Scan type                                : Progressive
Bits/(Pixel*Frame)                       : 0.046
Stream size                              : 934 MiB (73%)
Title                                    : Sun George


===================================================================


Audio
ID                                       : 3
Format                                   : AC-3
Format/Info                              : Audio Coding 3
Codec ID                                 : A_AC3
Duration                                 : 2 h 3 min
Bit rate mode                            : Constant
Bit rate                                 : 384 kb/s
Channel(s)                               : 6 channels
Channel positions                        : Front: L C R, Side: L R, LFE
Sampling rate                            : 48.0 kHz
Frame rate                               : 31.250 FPS (1536 SPF)
Bit depth                                : 16 bits
Compression mode                         : Lossy
Stream size                              : 341 MiB (27%)
Title                                    : Sun George
Language                                 : Hindi
Service kind                             : Complete Main
Default                                  : Yes
Forced                                   : No

Text
ID                                       : 2
Format                                   : ASS
Codec ID                                 : S_TEXT/ASS
Codec ID/Info                            : Advanced Sub Station Alpha
Duration                                 : 1 h 58 min
Bit rate                                 : 60 b/s
Count of elements                        : 1054
Compression mode                         : Lossless
Stream size                              : 52.4 KiB (0%)
Title                                    : Sun George
Writing library                          : Lavc57.42.100 ssa
Language                                 : English
Default                                  : Yes
Forced                                   : Yes














Recently Added Torrents in Movies

Trackers List

tracker name
udp://tracker.opentrackr.org:1337/announce
udp://tracker.leechers-paradise.org:6969/announce
udp://tracker.pirateparty.gr:6969/announce
udp://tracker.coppersurfer.tk:6969/announce
udp://tracker.mg64.net:2710/announce
udp://tracker.zer0day.to:1337/announce

Sharing Widget


Download torrent
1.3 GB
Seeders: 3
Leechers: 1
Fitoor (2016) Hindi 720p WEB-DL AVC AC3 DD 5 1 ESubs-Sun George (Requested)