Loading...
Loading...
Loading...

Global Meltdown 2017 720p BluRay x264 ESub [MW]

Seeders: 1
Leechers: n/a
Completed: 193

Age: 2 months    Visits: 64    Category: Movies    Size: 813.4 MB

Posted by: moviezworldz    Comments: Read Comments

Info Hash: 6FA547F1F630E5C2DF9A1379A90FBCE6C0B90B65



Torrent Description







General
Format : Matroska
Format version : Version 4 / Version 2
File size : 813 MiB
Duration : 1 h 27 min
Overall bit rate : 1 306 kb/s

Video
ID : 1
Format : AVC
Format/Info : Advanced Video Codec
Format profile : [email protected]
Format settings : CABAC / 4 Ref Frames
Format settings, CABAC : Yes
Format settings, RefFrames : 4 frames
Codec ID : V_MPEG4/ISO/AVC
Duration : 1 h 27 min
Bit rate : 1 200 kb/s
Width : 1 280 pixels
Height : 720 pixels
Display aspect ratio : 16:9
Frame rate mode : Constant
Frame rate : 23.976 (24000/1001) FPS
Color space : YUV
Chroma subsampling : 4:2:0
Bit depth : 8 bits
Scan type : Progressive
Bits/(Pixel*Frame) : 0.054
Stream size : 733 MiB (90%)
Writing library : x264 core 155 r2901 7d0ff22
Default : Yes
Forced : No

Audio
ID : 2
Format : AAC
Format/Info : Advanced Audio Codec
Format profile : HE-AAC / LC
Format settings : Explicit
Codec ID : A_AAC-2
Duration : 1 h 27 min
Bit rate : 127 kb/s
Channel(s) : 2 channels
Channel positions : Front: L R
Sampling rate : 48.0 kHz / 24.0 kHz
Frame rate : 23.438 FPS (1024 SPF)
Compression mode : Lossy
Stream size : 78.9 MiB (10%)
Language : English
Default : Yes
Forced : No

Text
ID : 3
Format : UTF-8
Codec ID : S_TEXT/UTF8
Codec ID/Info : UTF-8 Plain Text
Duration : 1 h 22 min
Bit rate : 55 b/s
Count of elements : 1124
Stream size : 33.9 KiB (0%)
Language : English
Default : Yes
Forced : No


Click To Enlarge Image









Recently Added Torrents in Movies

Trackers List

tracker name
udp://tracker.opentrackr.org:1337/announce
udp://tracker.leechers-paradise.org:6969/announce
udp://tracker.pirateparty.gr:6969/announce
udp://tracker.coppersurfer.tk:6969/announce
udp://tracker.mg64.net:2710/announce
udp://tracker.zer0day.to:1337/announce

Sharing Widget


Download torrent
813.4 MB
Seeders: 1
Leechers: n/a
Global Meltdown 2017 720p BluRay x264 ESub [MW]