Loading...

[Moviesjug net] The Meg (2018) BluRay 720p Original Auds [Hindi + Eng] 1GB

Seeders: 2
Leechers: 2
Completed: 1,402

Age: 1 month    Visits: 30    Category: Movies    Size: 1.0 GB

Posted by: Moviesjug    Comments: Read Comments

Info Hash: F28189869A043D1F10BEE6C4C1F51FB3237283B2



Torrent Description








VISIT OUR SITE
http://moviesjug.net/










SCREENSHOTS...







MEDIA INFO...


General
The Meg (2018) [Moviesjug.net] BluRay 720p Original Auds [Hindi + Eng].mkv
Format : Matroska
Format version : Version 4 / Version 2
File size : 1.03 GiB
Duration : 1 h 53 min
Overall bit rate mode : Variable
Overall bit rate : 1 299 kb/s
Movie name : Downloladed From [Moviesjug.net]

Video
ID : 1
Format : AVC
Format/Info : Advanced Video Codec
Format profile : [email protected]
Format settings : CABAC / 4 Ref Frames
Format settings, CABAC : Yes
Format settings, RefFrames : 4 frames
Codec ID : V_MPEG4/ISO/AVC
Duration : 1 h 53 min
Bit rate : 1 050 kb/s
Width : 1 280 pixels
Height : 534 pixels
Display aspect ratio : 2.40:1
Original display aspect ratio : 2.40:1
Frame rate mode : Constant
Frame rate : 23.976 (24000/1001) FPS
Color space : YUV
Chroma subsampling : 4:2:0
Bit depth : 8 bits
Scan type : Progressive
Bits/(Pixel*Frame) : 0.064
Stream size : 850 MiB (81%)
Title : Downloladed From [Moviesjug.net]
Writing library : x264 core 157
Language : English
Default : Yes
Forced : No

Audio #1
ID : 2
Format : MPEG Audio
Format version : Version 1
Format profile : Layer 3
Format settings : Joint stereo / MS Stereo
Codec ID : A_MPEG/L3
Codec ID/Hint : MP3
Duration : 1 h 53 min
Bit rate mode : Variable
Bit rate : 101 kb/s
Nominal bit rate : 128 kb/s
Channel(s) : 2 channels
Sampling rate : 44.1 kHz
Frame rate : 38.281 FPS (1152 SPF)
Compression mode : Lossy
Delay relative to video : -43 ms
Stream size : 81.6 MiB (8%)
Title : Downloladed From [Moviesjug.net]
Writing library : LAME3.99r
Encoding settings : -m j -V 4 -q 3 -lowpass 17 --abr 128
Language : Hindi
Default : No
Forced : No

Audio #2
ID : 3
Format : AAC
Format/Info : Advanced Audio Codec
Format profile : LC
Codec ID : A_AAC-2
Duration : 1 h 53 min
Bit rate : 144 kb/s
Channel(s) : 2 channels
Channel positions : Front: L R
Sampling rate : 48.0 kHz
Frame rate : 46.875 FPS (1024 SPF)
Compression mode : Lossy
Delay relative to video : -43 ms
Stream size : 118 MiB (11%)
Title : Downloladed From [Moviesjug.net]
Language : English
Default : No
Forced : No

Text
ID : 4
Format : UTF-8
Codec ID : S_TEXT/UTF8
Codec ID/Info : UTF-8 Plain Text
Duration : 1 h 41 min
Bit rate : 51 b/s
Count of elements : 1409
Stream size : 38.1 KiB (0%)
Title : Downloladed From [Moviesjug.net]
Language : English
Default : Yes
Forced : No



Recently Added Torrents in Movies

Trackers List

tracker name
udp://tracker.opentrackr.org:1337/announce
udp://tracker.leechers-paradise.org:6969/announce
udp://tracker.pirateparty.gr:6969/announce
udp://tracker.coppersurfer.tk:6969/announce
udp://tracker.mg64.net:2710/announce
udp://tracker.zer0day.to:1337/announce

Sharing Widget


Download torrent
1.0 GB
Seeders: 2
Leechers: 2
[Moviesjug net] The Meg (2018) BluRay 720p Original Auds [Hindi + Eng] 1GB