Loading...
Loading...
Loading...

Paltan (2018) Hindi 720p WEB-HD AVC AAC-Sun George

Seeders: 11
Leechers: 4
Completed: 143

Age: 1 week    Visits: 38    Category: Movies    Size: 1.7 GB

Posted by: Sungeorge    Comments: Read Comments

Info Hash: 9F505EF52C8342D5C252FAC6C44333DEF1BCCA7D



Torrent Description



Paltan (2018) Hindi 720p WEB-HD AVC AAC-Sun George



http://www.imdb.com/title/tt7162758/






===================================================================


General
Format : Matroska
Format version : Version 4 / Version 2
File size : 1.73 GiB
Duration : 2 h 27 min
Overall bit rate : 1 676 kb/s
Movie name : Paltan (2018) Hindi 720p WEB-HD AVC AAC-Sun George


===================================================================


Video
ID : 1
Format : AVC
Format/Info : Advanced Video Codec
Format profile : [email protected]
Format settings : CABAC / 4 Ref Frames
Format settings, CABAC : Yes
Format settings, RefFrames : 4 frames
Codec ID : V_MPEG4/ISO/AVC
Duration : 2 h 27 min
Bit rate : 1 405 kb/s
Width : 1 280 pixels
Height : 720 pixels
Display aspect ratio : 16:9
Frame rate mode : Constant
Frame rate : 25.000 FPS
Color space : YUV
Chroma subsampling : 4:2:0
Bit depth : 8 bits
Scan type : Progressive
Bits/(Pixel*Frame) : 0.061
Stream size : 1.45 GiB (84%)
Title : Sun George


===================================================================


Audio
ID : 2
Format : AAC
Format/Info : Advanced Audio Codec
Format profile : LC
Codec ID : A_AAC-2
Duration : 2 h 27 min
Bit rate : 265 kb/s
Channel(s) : 2 channels
Channel positions : Front: L R
Sampling rate : 48.0 kHz
Frame rate : 46.875 FPS (1024 SPF)
Compression mode : Lossy
Stream size : 284 MiB (16%)
Title : Sun George
Writing library : Lavc57.42.100 aac
Language : Hindi
Default : Yes
Forced : No
















Recently Added Torrents in Movies

Trackers List

tracker name
udp://tracker.opentrackr.org:1337/announce
udp://tracker.leechers-paradise.org:6969/announce
udp://tracker.pirateparty.gr:6969/announce
udp://tracker.coppersurfer.tk:6969/announce
udp://tracker.mg64.net:2710/announce
udp://tracker.zer0day.to:1337/announce

Sharing Widget


Download torrent
1.7 GB
Seeders: 11
Leechers: 4
Paltan (2018) Hindi 720p WEB-HD AVC AAC-Sun George