Loading...

River Runs Red 2018 Movies HDRip x264 5 1 with Sample ☻rDX☻

Seeders: 2
Leechers: n/a
Completed: 73

Age: 1 month    Visits: 41    Category: Movies    Size: 786.7 MB

Posted by: nehalpuja    Comments: Read Comments

Info Hash: CC0340A62BC0B67D13DAC5C9F186F7A06FFD4B1B



Torrent Description



River Runs Red 2018 Movies HDRip x264 5.1 with Sample ☻rDX☻
===============================================================================================

SCREEN SHOTS:



or

http://iphonehosting.eu/2018/11/a/medicine/1.html

File size : 779 MiB
Duration : 1 h 34 min
Overall bit rate mode : Constant
Overall bit rate : 1 156 kb/s
Movie name : River Runs Red 2018 Movies HDRip x264 5.1 ☻rDX☻

Video
ID : 2
Format : AVC
Format/Info : Advanced Video Codec
Format profile : [email protected]
Format settings, CABAC : Yes
Format settings, ReFrames : 2 frames
Format settings, GOP : M=1, N=12
Codec ID : V_MPEG4/ISO/AVC
Duration : 1 h 34 min
Bit rate mode : Constant
Bit rate : 965 kb/s
Width : 720 pixels
Height : 304 pixels
Display aspect ratio : 2.35:1
Frame rate mode : Constant
Frame rate : 23.976 (24000/1001) FPS
Color space : YUV
Chroma subsampling : 4:2:0
Bit depth : 8 bits
Scan type : Progressive
Bits/(Pixel*Frame) : 0.184
Stream size : 634 MiB (81%)
Title : ☻rDX☻
Default : Yes
Forced : No

Audio
ID : 1
Format : AC-3
Format/Info : Audio Coding 3
Mode extension : CM (complete main)
Format settings, Endianness : Big
Codec ID : A_AC3
Duration : 1 h 34 min
Bit rate mode : Constant
Bit rate : 192 kb/s
Channel(s) : 6 channels
Channel positions : Front: L C R, Side: L R, LFE
Sampling rate : 44.1 kHz
Frame rate : 28.711 FPS (1536 spf)
Bit depth : 16 bits
Compression mode : Lossy
Stream size : 129 MiB (17%)
Title : ☻rDX☻
Default : Yes
Forced : No

http://www.imdb.com/title/tt5843780



Recently Added Torrents in Movies

Trackers List

tracker name
udp://tracker.opentrackr.org:1337/announce
udp://tracker.leechers-paradise.org:6969/announce
udp://tracker.pirateparty.gr:6969/announce
udp://tracker.coppersurfer.tk:6969/announce
udp://tracker.mg64.net:2710/announce
udp://tracker.zer0day.to:1337/announce

Sharing Widget


Download torrent
786.7 MB
Seeders: 2
Leechers: n/a
River Runs Red 2018 Movies HDRip x264 5 1 with Sample ☻rDX☻