Loading...

The Predator (2018) 720p 10bit HC HDRip 2CH x265 HEVC - ENX265

Seeders: 1
Leechers: n/a
Completed: 10

Age: 1 month    Visits: 38    Category: Movies    Size: 614.2 MB

Posted by: ENX265    Comments: Read Comments

Info Hash: 53D19437C99C2C5E0BCADD1285D0408043BB0CFC



Torrent Description



Please post your requests at

ENX265.Com




CHECK SAMPLE
http://enx265.com/download-the-predator-2018-720p-10bit-hc-hdrip-2ch-x265-hevc-esub/

Code:

General

Format : Matroska
Format version : Version 4
File size : 614 MiB
Duration : 1 h 46 min
Overall bit rate : 804 kb/s
Movie name : Encoded By GunneR [Enx265.com]
Encoded date : UTC 2018-11-09 09:38:27
Writing application : mkvmerge v22.0.0 ('At The End Of The World') 64-bit
Writing library : libebml v1.3.5 + libmatroska v1.4.8
Cover : Yes
Attachments : cover.jpg / cover_land.jpg / small_cover.jpg / small_cover_land.jpg

Video
ID : 1
Format : HEVC
Format/Info : High Efficiency Video Coding
Format profile : Main [email protected]@Main
Codec ID : V_MPEGH/ISO/HEVC
Duration : 1 h 46 min
Bit rate : 663 kb/s
Width : 1 280 pixels
Height : 536 pixels
Display aspect ratio : 2.40:1
Frame rate mode : Constant
Frame rate : 30.000 FPS
Color space : YUV
Chroma subsampling : 4:2:0
Bit depth : 10 bits
Bits/(Pixel*Frame) : 0.032
Stream size : 506 MiB (82%)
Writing library : x265 2.5+14-2718cb5dd67f:[Windows][GCC 7.1.0][64 bit] 10bit
Default : Yes
Forced : No

Audio
ID : 2
Format : AAC LC
Format/Info : Advanced Audio Codec Low Complexity
Codec ID : A_AAC-2
Duration : 1 h 46 min
Bit rate : 139 kb/s
Channel(s) : 2 channels
Channel layout : L R
Sampling rate : 44.1 kHz
Frame rate : 43.066 FPS (1024 SPF)
Compression mode : Lossy
Delay relative to video : 10 ms
Stream size : 106 MiB (17%)
Language : English
Default : No
Forced : No



Recently Added Torrents in Movies

Trackers List

tracker name
udp://tracker.opentrackr.org:1337/announce
udp://tracker.leechers-paradise.org:6969/announce
udp://tracker.pirateparty.gr:6969/announce
udp://tracker.coppersurfer.tk:6969/announce
udp://tracker.mg64.net:2710/announce
udp://tracker.zer0day.to:1337/announce

Sharing Widget


Download torrent
614.2 MB
Seeders: 1
Leechers: n/a
The Predator (2018) 720p 10bit HC HDRip 2CH x265 HEVC - ENX265