Loading...
Loading...
Loading...

The Predator 2018 720p HC HDRip x264 [MW]

Seeders: 14
Leechers: 3
Completed: 493

Age: 1 week    Visits: 34    Category: Movies    Size: 1,011.0 MB

Posted by: moviezworldz    Comments: Read Comments

Info Hash: 404720EEDCF1ADE18A5EEDFE5C08BCD0D185D167



Torrent Description







General
Format : Matroska
Format version : Version 4 / Version 2
File size : 1 011 MiB
Duration : 1 h 46 min
Overall bit rate : 1 323 kb/s

Video
ID : 1
Format : AVC
Format/Info : Advanced Video Codec
Format profile : [email protected]
Format settings : CABAC / 4 Ref Frames
Format settings, CABAC : Yes
Format settings, RefFrames : 4 frames
Codec ID : V_MPEG4/ISO/AVC
Duration : 1 h 46 min
Bit rate : 1 200 kb/s
Width : 1 280 pixels
Height : 532 pixels
Display aspect ratio : 2.40:1
Frame rate mode : Constant
Frame rate : 30.000 FPS
Color space : YUV
Chroma subsampling : 4:2:0
Bit depth : 8 bits
Scan type : Progressive
Bits/(Pixel*Frame) : 0.059
Stream size : 911 MiB (90%)
Writing library : x264 core 155 r2901 7d0ff22
Default : Yes
Forced : No

Audio
ID : 2
Format : AAC
Format/Info : Advanced Audio Codec
Format profile : LC
Codec ID : A_AAC-2
Duration : 1 h 46 min
Bit rate : 128 kb/s
Channel(s) : 2 channels
Channel positions : Front: L R
Sampling rate : 48.0 kHz
Frame rate : 46.875 FPS (1024 SPF)
Compression mode : Lossy
Stream size : 98.1 MiB (10%)
Language : English
Default : Yes
Forced : No


Click To Enlarge Image










Recently Added Torrents in Movies

Trackers List

tracker name
udp://tracker.opentrackr.org:1337/announce
udp://tracker.leechers-paradise.org:6969/announce
udp://tracker.pirateparty.gr:6969/announce
udp://tracker.coppersurfer.tk:6969/announce
udp://tracker.mg64.net:2710/announce
udp://tracker.zer0day.to:1337/announce

Sharing Widget


Download torrent
1,011.0 MB
Seeders: 14
Leechers: 3
The Predator 2018 720p HC HDRip x264 [MW]