Loading...
Loading...
Loading...

The Predator 2018 720p HC HDRip x265 HEVCBay com mkv

Seeders: 3
Leechers: 1
Completed: 57

Age: 1 week    Visits: 21    Category: Movies    Size: 331.5 MB

Posted by: g3m696    Comments: Read Comments

Info Hash: 66D7943D72B0599485D5DE5B7F55E799F1DCD382



Torrent Description



hevcbay.com

Code:

General
Unique ID : 111648117135067737427199773281630618864 (0x53FEA52BFD81842E2AF028AA98A104F0)
Complete name : The.Predator.2018.720p.HC.HDRip.x265.HEVCBay.com.mkv
Format : Matroska
Format version : Version 4
File size : 331 MiB
Duration : 1 h 46 min
Overall bit rate : 434 kb/s
Movie name : HEVCBay.com
Encoded date : UTC 2018-11-09 12:23:47
Writing application : hevcbay
Writing library : hevcbay.com / Lavf58.19.102
Comment : Encoded by hevcbay.com
ENCODED-BY : hevcbay.com

Video
ID : 1
Format : HEVC
Format/Info : High Efficiency Video Coding
Format profile : [email protected]@Main
Codec ID : V_MPEGH/ISO/HEVC
Duration : 1 h 46 min
Bit rate : 382 kb/s
Width : 1 280 pixels
Height : 534 pixels
Display aspect ratio : 2.40:1
Original display aspect ratio : 2.40:1
Frame rate mode : Constant
Frame rate : 30.000 FPS
Color space : YUV
Chroma subsampling : 4:2:0
Bit depth : 8 bits
Bits/(Pixel*Frame) : 0.019
Stream size : 292 MiB (88%)
Writing library : Lavc58.34.100 libx265
Default : Yes
Forced : No
Color range : Limited

Audio
ID : 2
Format : AAC LC SBR PS
Format/Info : Advanced Audio Codec Low Complexity with Spectral Band Replication and Parametric Stereo
Commercial name : HE-AACv2
Format settings : NBC
Codec ID : A_AAC-29
Duration : 1 h 46 min
Bit rate : 48.0 kb/s
Channel(s) : 2 channels
Channel layout : C
Sampling rate : 48.0 kHz
Frame rate : 23.438 FPS (2048 SPF)
Compression mode : Lossy
Delay relative to video : -215 ms
Stream size : 37.7 MiB (11%)
Writing library : Lavc58.34.100 libfdk_aac
Language : English
Default : Yes
Forced : No



http://extraimage.net/image/7Hus
http://extraimage.net/image/7Hu7
http://extraimage.net/image/7Huc
http://extraimage.net/image/7Hu1



Recently Added Torrents in Movies

Trackers List

tracker name
udp://tracker.opentrackr.org:1337/announce
udp://tracker.leechers-paradise.org:6969/announce
udp://tracker.pirateparty.gr:6969/announce
udp://tracker.coppersurfer.tk:6969/announce
udp://tracker.mg64.net:2710/announce
udp://tracker.zer0day.to:1337/announce

Sharing Widget


Download torrent
331.5 MB
Seeders: 3
Leechers: 1
The Predator 2018 720p HC HDRip x265 HEVCBay com mkv